&title=Paradisus-Paradoxum [DX]
&wholebpm=201
&artist=MYTH & ROID「Re:ゼロから始める異世界生活」
&des=シチミヘルツ
&shortid=10615
&genre=POPSアニメ
&cabinet=DX
&version=maimai DX PLUS
&chartconverter=Neskol
&lv_2=4
&des_2=-
&lv_3=7
&des_3=-
&lv_4=9+
&des_4=サファ太
&lv_5=12+
&des_5=シチミヘルツ
&des_6=
&inote_2=
(201){1},
{1},
{1},
{1},
{1},
{1},
{1},
{1},
{1},
{2}1,1,
{1}1,
{2}8,8,
{1}8,
{1}1h[1:1],
{1},
{1}8h[1:1],
{1},
{1}1-5[4:3],
{1},
{1}8-4[4:3],
{1},
{1}3,
{1}3,
{1}4,
{1}4/5,
{1}5h[1:2],
{1},
{1},
{1}5,
{1}4h[1:2],
{1},
{1},
{1}4,
{1}5,
{1}5,
{1}6,
{1}6,
{2}7,7,
{1}7,
{2}8,8,
{1}1b/8b,
{1}B8,
{1}B7,
{1}B6,
{1}B5,
{1}B4,
{1}B3,
{1}B2,
{1}B1/B8,
{1}C1hf[1:1],
{1},
{4}8,8,8,,
{4}7,7,7,,
{4}6,6,6,,
{2}4x/5x,5,
{2}4x,4,
{2}3x,3,
{1}1xh[1:1]/2xh[1:1],
{1},
{4}1,1,1,,
{4}2,2,2,,
{4}3,3,3,,
{1}4x/5x,
{2}5/6,5/6,
{2}3/4,3/4,
{1}5h[8:7]/6h[8:7],
{1},
{1}6-1[4:3],
{1},
{1}3-8[4:3],
{1},
{4}6,6,6,,
{4}5/6,5/6,5/6,,
{4}3,3,3,,
{4}3/4,3/4,3/4,,
{1},
{1},
{1},
E
&inote_3=
(201){1},
{1}5x<4[4:11],
{1},
{1},
{1},
{1}5h[1:1],
{1}4xh[1:1],
{4}5x,5x,6x,6x,
{1}2x/7x,
{4}2,2,1/2,,
{4}7,7,7/8,,
{4}7,7,8,8,
{4}1,1,2/7,,
{1}3h[1:1],
{1}4h[1:1],
{1}5h[8:7],
{1},
{4}6,6,5/6,,
{4}3,3,3/4,,
{4}2,2,1,1,
{4}8,8,1x/7x,,
{4}2,2,1/2,,
{4}7,7,7/8,,
{4}7,7,8,8,
{4}1,1,2x/7x,,
{1}B3,
{1}B4,
{1}C1xh[1:1],
{1},
{1}B6,
{1}B5,
{1}C1hf[1:1],
{1},
{2}7h[2:1],8,
{2}2h[2:1],1,
{2}7h[2:1],8,
{2}2h[2:1],1,
{4}3,3,3/4,,
{4}6,6,5/6,,
{4}6,6,5,5,
{4}4,4,3x/6x,,
{2}E3,B3,
{1}B4,
{2}E7,B6,
{1}B5,
{2}B4,B3,
{2}B2,B1,
{2}B8,B7,
{2}B6,B5,
{1}C1f,
{1},
{4}2b,2,1,1,
{4}8,8,1x/7x,,
{4}7,7,6,6,
{4}5,5,4x/6x,,
{4}3h[4:1],4,4,,
{4}6h[4:1],5,5,,
{2}7h[2:1],8h[2:1],
{2}1h[2:1],2x,
{4}2b,2,1/2,1/2,
{4}2,1,3x/8x,,
{4}7,7,7/8,7/8,
{4}7,8,1x/6x,,
{1}1x>4[2:1],
{1}5x<8[2:1],
{1}1xpp4[4:5]/8xqq5[4:5],
{1},
{4}6,6,5/6,,
{4}3,3,3/4,,
{4}6,6,5,5,
{4}4,4,3x/6x,,
{2}E3,B3,
{1}B4,
{2}E7,B6,
{2}B5,C1f,
{1},
{1},
{1},
E
&inote_4=
(201){1},
{1},
{1},
{1},
{1},
{1},
{1},
{8}5x/6x,5x/6x,,3x,3x,4x,,4x/5x,
{8},3x/6x,3x/6x,,,,4/5,,
{8}1b/7b,,2,2/4,,5>1[8:3]/6h[4:1],,,
{4},,7,4/6,
{8}2/8,,7,5/7,,3h[4:1]/4<8[8:3],,,
{4},,1,2,
{4}3h[4:3]/5,4,2,1,
{4}8h[4:3],7,6,5>2[2:1]*<8[2:1],
{8},,,,,,,1xh[4:1],
{8},,2xh[4:1]/8xh[4:1],,,3xh[4:1]/7xh[4:1],,,
{1}3b>5[4:3]/7b,
{8},,,,,E4/E5/E6,,C1xh[8:9]/B2/B7,
{1},
{4},,2/8,2/8,
{4}1-4[4:1],,6,6,
{4}5-8[4:1],,1,1,
{4}2h[4:1],4,6h[4:1],5,
{8}4,5,4,,4/5,,1/8,,
{1}2b/7bp4[4:5],
{1},
{1}3p8[4:5],
{1},
{1}6p3[4:5],
{1},
{1}1s5[1:1],
{2},4x/6x,
{8}3h[8:3],,4,4,,2,2,,
{8}6h[8:3],,5,5,,7,7,,
{8}3h[8:3],,4,4,,1,1,,
{4}8h[4:1],7h[4:1],6,5/6,
{8}7h[8:3],,8,8,,6,6,,
{8}2h[8:3],,1,1,,3,3,,
{4}5/6,4/7>4[2:1],,,
{4}1x,1,2/5,6,
{4}7<4[4:1],,3,2,
{4}1>4[4:1],,5,6,
{4}7p3[4:1],,2,1,
{4}2/8,,4/5,3/6,
{4}2>5[4:1],,6,7,
{4}8<5[4:1],,4,3,
{8}2x/4x,,,4/5,4/5,,3/6,,
{4}5/7,2/4,7/8,1/2,
{8}3x/4x,3x/4x,,6x,6x,5x,,1x/8x,
{8},2x/7x,2x/7x,,,,4/5,,
{8}2b/8b,,3/4,3/4,,7<4[4:1]/8>3[4:1],,,
{4},,4/5,4,
{8}2/8,,5/6,5/6,,1<6[4:1]/2>5[4:1],,,
{4},,4/5,4/5,
{4}2h[4:1]/7,4h[4:1],5h[4:1],6,
{4}2/7h[4:1],5h[4:1],4h[4:1],2,
{4}1/2,3/8,1/6,7/8,
{4}3x/6x,,4/5,1/8,
{8}3b/5b,,1/2,1/2,,5>2[4:1]/6<1[4:1],,,
{4},,1/8,1,
{8}4x/6x,,7/8,7/8,,3>8[4:1]/4<7[4:1],,,
{4},,1/8,2/7,
{4}3h[4:3]/6,4,2,1,
{4}7h[4:3]/8,6,5,4>1[2:1]*<7[2:1],
{8},,,,,,,8xh[4:1],
{8},,1xh[4:1]/7xh[4:1],,,2xh[4:1]/6xh[4:1],,,
{1}2b/6b<4[4:3],
{8},,,,,E4/E5/E6,,C1xh[8:9]/B2/B7,
{1},
{4},,1/8,1/8,
{4}2-5[8:1],6<3[8:3],4x,,
{4}1x,1/6,3/8,5/6,
{4}7-4[8:1],3>6[8:3],5x,,
{8}8x,,2/8,,3x/6x,3b/6b-2[8:1],,,
{1},
{1},
{1},
E
&inote_5=
(201){1},
{1}1>8[2:3]*>8[2:3],
{1},
{1}1>8[2:3]*>8[2:3],
{1},
{1}1-4[4:3]/8-5[4:3],
{1},
{8}1/2,3/8,,3/4,2/5,1/6,,5/7,
{8},7/8,1b/6b,,3-6[8:1]/7-2[8:1],,,,
{8}4-1[8:1]/8,,6,6-2[8:1],,8>6[16:5],,C1f,
{4},1x,3-8[8:1]/7-4[8:1],,
{8}1/5-8[8:1],,3,3-7[8:1],,1<3[16:5],,C1f,
{8},,8x,,2/6,3,4x/8x,,
{4}2>5[8:1]/6<1[8:1],,3-7[8:1]/7,5,
{4}2>5[8:1]/6<1[8:1],,3-7[8:1]/7,5<4[8:5],
{8}1h[8:5],,,,,,,7-4[8:1],
{8},,1-6[8:1],,,4-8[8:1],,,
{8}3b,,1x/2x,3,4,3,2x/5x,,
{8}7-4[8:1],8,7x,1,8-4[8:1],2,8x,,
{8}3/7,,7x/8x,6,5,6,4x/7x,,
{8}2-5[8:1],1,2x,8,1-5[8:1],7,1x,,
{8}2/6,,1x/2x,3,4,3,2x/5x,,
{8}7-4[8:1],8,7x,1,8-4[8:1],2,8x,,
{8}3/7,,7x/8x,6,5,6,4x/7x,,
{8}2,1,2,3/8,,7/8,7/8,1/6,
{1}2q4[2:3]/5,
{2}E5,C1,
{1}7p5[2:3],
{2}E5,C1,
{1}1q3[2:3],
{2}E5,C1,
{1}8z4[4:3],
{1}1s5[2:1]*v3[2:1],
{8}2/6,,3,3h[4:1],,1,1h[4:1],,
{8}8,8>4[4:1],,6,6,,5x/7x,,
{8}3/8,,6,6h[4:1],,8,8h[4:1],,
{8}1,1<5[4:1],,3,3,,2x/4x,,
{8}1/6,,3,3h[4:1],,1,1h[4:1],,
{8}8,8>4[4:1],,6,6,,5x/7x,,
{8}1/2,3,4/5,6,7/8,6,4/5,3,
{2}2>5[8:1]/8<5[8:1],3b/7b,
{4}1h[2:1],B3/B4,7h[2:1],B5/B6,
{4}2h[2:1],B3/B4,8h[2:1],B6/B7,
{4}1h[2:1],B2/B3,8,5/7,
{16}2/6,,3,4,3h[8:1],,1,,2-6[8:1]/8,,,,2/6,,,,
{4}1h[2:1]/8,B3/E3/E4,7h[2:1],B6/E6/E7,
{4}2h[2:1],B2/E2/E3,8,5/7,
{4}1/6-4[8:1],2-8[8:1],6-2[8:1],4,
{8}3b/8b,7,1b/6b,2,3b/8b,7,1b/6b,2,
{8}4b/8b,3>8[8:1]/7<4[8:1],,,,2>5[8:1]/6<1[8:1],,,
{8},3/7,1x/5x,,3-6[8:1]/7-2[8:1],,,,
{8}4-1[8:1]/8,,6,6-2[8:1],,8>6[16:5],,C1f,
{4},1x,3-8[8:1]/7-4[8:1],,
{8}1/5-8[8:1],,3,3-7[8:1],,1<3[16:5],,C1f,
{4},8x,2/6,4>7[16:3]/8,
{4}B1/B2,4<1[16:3],B6/B7,4>7[16:3],
{4}B2/B3,4<1[16:3],B5/B6,4,
{4}1-6[8:1]/3,5-2[8:1],7-3[8:1],1w5[8:1],
{2}1b,2-7[8:1]/6-3[8:1],
{8}1/5-8[8:1],,3,3-7[8:1],,1<3[16:5],,C1f,
{4},8x,2-5[8:1]/6-1[8:1],,
{8}4-1[8:1]/8,,6,6-2[8:1],,8>6[16:5],,C1f,
{8},,1x,,3/7,6,1x/5x,,
{4}3>8[8:1]/7<4[8:1],,2/6-2[8:1],4,
{4}3>8[8:1]/7<4[8:1],,2/6-2[8:1],4>5[8:5],
{8}8h[8:5],,,,,,,2-5[8:1],
{8},,8-3[8:1],,,5-1[8:1],,,
{8}6b,,7x/8x,6,5,6,4x/7x,,
{8}2-5[8:1],1,2x,8,1-5[8:1],7,1x,,
{8}2/6,,1x/2x,3,4,3,2x/5x,,
{8}7-4[8:1],8,7,2,1,1,2/8,3/7,
{8}4/6-2[8:1],4,4V28[4:1]*V68[4:1],,,,,2h[4:1],
{8},1,1/3,2/8,1/7,6h[4:1]/8b,,1,
{8}1/7-3[8:1],1,1V75[4:1]*V35[4:1],,,,,3h[4:1],
{384},,,,,,,,,,,,,,,,,,,,,,,,,,,,,,,,,,,,,,,,,,,,,,,,4,,,,,,,,,,,,,,,,,,,,,,,,,,,,,,,,,,,,,,,,,,,,,,,,2/4,,,,,,,,,,,,,,,,,,,,,,,,,,,,,,,,,,,,,,,,,,,,,,,,3v8[8:1]/5v8[8:1],,,,,,,,,,,,,,,,,,,,,,,,,,,,,,,,,,,,,,,,,,,,,,,,2/6,,,,,,,,,,,,,,,,,,,,,,,,,,,,,,,,,,,,,,,,,,,,,,,,3b/5b,C1f,,,,,,,,,,,,,,,,,,,,,,,,,,,,,,,,,,,,,,,,,,,,,,,,,,,,,,,,,,,,,,,,,,,,,,,,,,,,,,,,,,,,,,,,,,,,,,,,,,,,,,,,,,,,,,,,,,,,,,,,,,,,,,,,,,,,,,,,,,,,,,,
{1},
{1},
{1},
E
